***Уважаемые пользователи и гости !!! Сайт переехал на новый домен Torrents-club.net. Просьба изменить ваши закладки! ***
 
[ Сегодня идет свободное скачивание без начисления Download ]


Статистика раздачи
Скачал: [ 1 ]
 
   
 
 
 
 
Снупи и мелочь пузатая в кино / The Peanuts Movie (2015) [4K, HEVC, HDR / Blu-Ray Remux](2160p) Год выпуска: 2015
Жанр: Мультфильм, комедия, приключения, семейный, полнометражный
Выпущено: США
Режиссер: Стив Мартино
Продолжительность: 01:28:06
Перевод: Дублированный, авторский
Субтитры: Русские, английские, украинские
Возрастное ограничения: 6+-В ролях: Тромбоун Шорти, Ребекка Блум, Анастасия Бредихина, Франческа Капальди, Кристин Ченоуэт, Александр Гарфин, Ной Джонстон, Билл Мелендес,Хэдли Белль Миллер
О фильме: Чарли Браун, Снупи, Люси, Линус и другие полюбившиеся персонажи комиксов «Мелочь пузатая» впервые появятся на большом экране в полнометражном анимационном фильме, снятом с использованием последних достижений 3D-анимации. Снупи - самый симпатичный пес в мире - к тому же, классный пилот - отправляется в невероятные воздушные приключения в погоне за главным злодеем Красным Бароном. В это время у его приятеля Чарли Брауна начинаются поистине эпические приключения!
Снупи и мелочь пузатая в кино. Русский трейлер
Технические данные:
Качество: Blu-Ray Remux (2160p)
Видео: HEVC, 34.6 Mбит/с, 3840x2160, 23.976 кадр/с
Аудио: Русский (DTS, 6 ch, 768 Кбит/с), (DTS-ES, 6 ch, 1509 Кбит/с), украинский (AC3, 6 ch, 448 Кбит/с), английский, (TrueHD, 8 ch, 5054 Кбит/с), (AC3, 6 ch, 448 Кбит/с)

Релиз

Видео: MPEG-H HEVC Video / 34599 kbps / 3840x2160 / 23.976 fps / 16:9 / Main 10 @ Level 5.1 @ High / 4:2:0 / 10 bits / HDR10 / BT.2020 /
Аудио 1: Russian DTS / 5.1 / 48 kHz / 768 kbps / 24-bit |Dub, Blu-Ray|
Аудио 2: Russian DTS-ES / 5.1 / 48 kHz / 1509 kbps / 24-bit |А. Матвеев|
Аудио 3: Ukrainian AC3 / 5.1 / 48 kHz / 448 kbps / 16-bit |Dub, Blu-Ray|
Аудио 4: English Dolby Atmos/TrueHD Audio / 7.1-Atmos / 48 kHz / 5054 kbps / 24-bit |original|
Аудио 5: English AC3 Core: 5.1 / 48 kHz / 448 kbps |original|
Субтитры: русские (forced, full), украинские, английские (full, SDH)

MediaInfo:

Общее
Уникальный идентификатор                 : 176439231781223851620257894035540155871 (0x84BCF5C1974A5FB1608A417385201DDF)
Полное имя                               : H:\UHD\Снупи и мелочь пузатая в кино.2015.UHD.Blu-Ray.Remux.2160p.mkv
Формат                                   : Matroska
Версия формата                           : Version 4
Размер файла                             : 26,1 Гбайт
Продолжительность                        : 1 ч. 28 м.
Режим общего битрейта                    : Переменный
Общий поток                              : 42,4 Мбит/сек
Дата кодирования                         : UTC 2019-11-03 19:33:27
Программа кодирования                    : mkvmerge v38.0.0 ('The Silent Type') 64-bit
Библиотека кодирования                   : libebml v1.3.9 + libmatroska v1.5.2
Attachments                              : poster.jpg
Видео
Идентификатор                            : 1
Формат                                   : HEVC
Формат/Информация                        : High Efficiency Video Coding
Профиль формата                          : Main 10@L5.1@High
HDR_Format/String                        : SMPTE ST 2086, HDR10 compatible
Идентификатор кодека                     : V_MPEGH/ISO/HEVC
Продолжительность                        : 1 ч. 28 м.
Битрейт                                  : 34,6 Мбит/сек
Ширина                                   : 3840 пикселей
Высота                                   : 2160 пикселей
Соотношение сторон                       : 16:9
Режим частоты кадров                     : Постоянный
Частота кадров                           : 23,976 (24000/1001) кадра/сек
Цветовое пространство                    : YUV
Субдискретизация насыщенности            : 4:2:0 (Type 2)
Битовая глубина                          : 10 бит
Бит/(Пиксели*Кадры)                      : 0.174
Размер потока                            : 21,3 Гбайт (82%)
Библиотека кодирования                   : ATEME Titan KFE 3.7.3 (4.7.3.1001)
Default                                  : Да
Forced                                   : Нет
Цветовой диапазон                        : Limited
Основные цвета                           : BT.2020
Характеристики трансфера                 : PQ
Коэффициенты матрицы                     : BT.2020 non-constant
MasteringDisplay_ColorPrimaries          : Display P3
MasteringDisplay_Luminance               : min: 0.0000 cd/m2, max: 1100 cd/m2
Аудио #1
Идентификатор                            : 2
Формат                                   : DTS
Формат/Информация                        : Digital Theater Systems
Идентификатор кодека                     : A_DTS
Продолжительность                        : 1 ч. 28 м.
Вид битрейта                             : Постоянный
Битрейт                                  : 768 Кбит/сек
Каналы                                   : 6 каналов
ChannelLayout                            : C L R Ls Rs LFE
Частота                                  : 48,0 КГц
Частота кадров                           : 93,750 кадра/сек (512 SPF)
Битовая глубина                          : 24 бит
Метод сжатия                             : С потерями
Размер потока                            : 484 Мбайт (2%)
Заголовок                                : Dub, Blu-Ray
Язык                                     : Russian
Default                                  : Да
Forced                                   : Нет
Аудио #2
Идентификатор                            : 3
Формат                                   : DTS ES
Формат/Информация                        : Digital Theater Systems
Коммерческое название                    : DTS-ES Matrix
Идентификатор кодека                     : A_DTS
Продолжительность                        : 1 ч. 28 м.
Вид битрейта                             : Постоянный
Битрейт                                  : 1509 Кбит/сек
Каналы                                   : 6 каналов
Channel(s)_Original                      : 7 каналов
ChannelLayout_Original                   : C L R Ls Rs Cs LFE
Частота                                  : 48,0 КГц
Частота кадров                           : 93,750 кадра/сек (512 SPF)
Битовая глубина                          : 24 бит
Метод сжатия                             : С потерями
Размер потока                            : 951 Мбайт (4%)
Заголовок                                : А. Матвеев
Язык                                     : Russian
Default                                  : Нет
Forced                                   : Нет
Аудио #3
Идентификатор                            : 4
Формат                                   : AC-3
Формат/Информация                        : Audio Coding 3
Коммерческое название                    : Dolby Digital
Идентификатор кодека                     : A_AC3
Продолжительность                        : 1 ч. 28 м.
Вид битрейта                             : Постоянный
Битрейт                                  : 448 Кбит/сек
Каналы                                   : 6 каналов
ChannelLayout                            : L R C LFE Ls Rs
Частота                                  : 48,0 КГц
Частота кадров                           : 31,250 кадров/сек (1536 SPF)
Метод сжатия                             : С потерями
Размер потока                            : 282 Мбайт (1%)
Заголовок                                : Dub, Blu-Ray
Язык                                     : Ukrainian
ServiceKind/String                       : Complete Main
Default                                  : Нет
Forced                                   : Нет
Аудио #4
Идентификатор                            : 5
Формат                                   : MLP FBA 16-ch
Формат/Информация                        : Meridian Lossless Packing FBA with 16-channel presentation
Коммерческое название                    : Dolby TrueHD with Dolby Atmos
Идентификатор кодека                     : A_TRUEHD
Продолжительность                        : 1 ч. 28 м.
Вид битрейта                             : Переменный
Битрейт                                  : 4606 Кбит/сек
Максимальный битрейт                     : 5934 Кбит/сек
Каналы                                   : 8 каналов
ChannelLayout                            : L R C LFE Ls Rs Lb Rb
Частота                                  : 48,0 КГц
Частота кадров                           : 1200,000 кадров/сек (40 SPF)
Метод сжатия                             : Без потерь
Размер потока                            : 2,83 Гбайт (11%)
Язык                                     : English
Default                                  : Нет
Forced                                   : Нет
NumberOfDynamicObjects                   : 13
BedChannelCount/String                   : 1 канал
BedChannelConfiguration                  : LFE
Аудио #5
Идентификатор                            : 6
Формат                                   : AC-3
Формат/Информация                        : Audio Coding 3
Коммерческое название                    : Dolby Digital
Идентификатор кодека                     : A_AC3
Продолжительность                        : 1 ч. 28 м.
Вид битрейта                             : Постоянный
Битрейт                                  : 448 Кбит/сек
Каналы                                   : 6 каналов
ChannelLayout                            : L R C LFE Ls Rs
Частота                                  : 48,0 КГц
Частота кадров                           : 31,250 кадров/сек (1536 SPF)
Метод сжатия                             : С потерями
Размер потока                            : 282 Мбайт (1%)
Язык                                     : English
ServiceKind/String                       : Complete Main
Default                                  : Нет
Forced                                   : Нет
Текст #1
Идентификатор                            : 7
Формат                                   : UTF-8
Идентификатор кодека                     : S_TEXT/UTF8
Идентификатор кодека/Информация          : UTF-8 Plain Text
Продолжительность                        : 1 ч. 26 м.
Битрейт                                  : 0 бит/сек
ElementCount                             : 4
Размер потока                            : 209 байт (0%)
Заголовок                                : forced
Язык                                     : Russian
Default                                  : Да
Forced                                   : Нет
Текст #2
Идентификатор                            : 8
Формат                                   : UTF-8
Идентификатор кодека                     : S_TEXT/UTF8
Идентификатор кодека/Информация          : UTF-8 Plain Text
Продолжительность                        : 1 ч. 26 м.
Битрейт                                  : 70 бит/сек
ElementCount                             : 828
Размер потока                            : 44,7 Кбайт (0%)
Заголовок                                : full
Язык                                     : Russian
Default                                  : Нет
Forced                                   : Нет
Текст #3
Идентификатор                            : 9
Формат                                   : UTF-8
Идентификатор кодека                     : S_TEXT/UTF8
Идентификатор кодека/Информация          : UTF-8 Plain Text
Продолжительность                        : 1 ч. 26 м.
Битрейт                                  : 72 бит/сек
ElementCount                             : 827
Размер потока                            : 46,1 Кбайт (0%)
Язык                                     : Ukrainian
Default                                  : Нет
Forced                                   : Нет
Текст #4
Идентификатор                            : 10
Формат                                   : UTF-8
Идентификатор кодека                     : S_TEXT/UTF8
Идентификатор кодека/Информация          : UTF-8 Plain Text
Продолжительность                        : 1 ч. 22 м.
Битрейт                                  : 52 бит/сек
ElementCount                             : 1105
Размер потока                            : 31,7 Кбайт (0%)
Заголовок                                : full
Язык                                     : English
Default                                  : Нет
Forced                                   : Нет
Текст #5
Идентификатор                            : 11
Формат                                   : UTF-8
Идентификатор кодека                     : S_TEXT/UTF8
Идентификатор кодека/Информация          : UTF-8 Plain Text
Продолжительность                        : 1 ч. 27 м.
Битрейт                                  : 59 бит/сек
ElementCount                             : 1387
Размер потока                            : 37,9 Кбайт (0%)
Заголовок                                : SDH
Язык                                     : English
Default                                  : Нет
Forced                                   : Нет
Меню
00:00:00.000                             : en:Chapter 1
00:05:19.110                             : en:Chapter 2
00:07:58.269                             : en:Chapter 3
00:11:02.912                             : en:Chapter 4
00:13:35.106                             : en:Chapter 5
00:17:49.193                             : en:Chapter 6
00:20:56.046                             : en:Chapter 7
00:23:27.948                             : en:Chapter 8
00:25:35.617                             : en:Chapter 9
00:28:08.228                             : en:Chapter 10
00:32:36.538                             : en:Chapter 11
00:36:23.181                             : en:Chapter 12
00:41:14.138                             : en:Chapter 13
00:44:19.866                             : en:Chapter 14
00:47:57.333                             : en:Chapter 15
00:51:47.438                             : en:Chapter 16
00:55:29.535                             : en:Chapter 17
01:00:15.195                             : en:Chapter 18
01:03:27.095                             : en:Chapter 19
01:04:53.431                             : en:Chapter 20
01:08:59.886                             : en:Chapter 21
01:12:24.549                             : en:Chapter 22
01:16:15.488                             : en:Chapter 23
01:17:21.011                             : en:Chapter 24

Скриншоты

[Цитировать]



Показать сообщения:    

Текущее время: 19-Ноя 16:31

Часовой пояс: UTC + 6


Вы не можете начинать темы
Вы не можете отвечать на сообщения
Вы не можете редактировать свои сообщения
Вы не можете удалять свои сообщения
Вы не можете голосовать в опросах
Вы не можете прикреплять файлы к сообщениям
Вы не можете скачивать файлы

!ВНИМАНИЕ!
Сайт не предоставляет электронные версии произведений, а занимается лишь коллекционированием и каталогизацией ссылок, присылаемых и публикуемых на форуме нашими читателями. Если вы являетесь правообладателем какого-либо представленного материала и не желаете, чтобы ссылка на него находилась в нашем каталоге, свяжитесь с нами, и мы незамедлительно удалим ее. Файлы для обмена на трекере предоставлены пользователями сайта, и администрация не несет ответственности за их содержание. Просьба не заливать файлы, защищенные авторскими правами, а также файлы нелегального содержания!