***Уважаемые пользователи и гости !!! Сайт переехал на новый домен Torrents-club.net. Просьба изменить ваши закладки! ***
 
[ Сегодня идет свободное скачивание без начисления Download ]


Статистика раздачи
Скачал: [ 2 ]
 
   
 
 
 
 
Клуб анонимных киллеров / Killers Anonymous (2019) BDRip 1080p | 60 fps
««Собрания начинаются»»
Год выпуска: 2019
Страна: Великобритания
Жанр: боевик, триллер, криминал, детектив
Продолжительность: 01:35:54
Перевод: Дублированный | iTunes
Субтитры: английские
Режиссер: Мартин Оуэн
В ролях:
МайАнна Бёринг (Joanna), Гари Олдман (The Man), Томми Флэнаган (Markus), Элизабет Моррис (Krystal), Рион Николь Браун (Alice), Майкл Сока (Leandro), Джессика Альба (Jade), Тим Макиннерни (Calvin), Эллиотт Джеймс Лангридж (Ben), Сьюки Уотерхаус (Violet), Сэм Хэзелдайн (Senator Kyle), Изабелль Аллен (Morgan)
Описание:
Где-то в секретном месте городские убийцы собираются на встречи анонимных киллеров - там, в кругу единомышленников, они учатся подавлять свои жестокие порывы. В ночь, когда скончался сенатор США, клуб пополнился таинственным новобранцем, и начались размолвки - все начали подозревать друг друга. В конце концов герои понимают, что они связаны с более крупной и ужасающей организацией, чем могли себе представить.
Рейтинг:

MPAA: R - Лицам до 17 лет обязательно присутствие взрослого
Качество: BDRip 1080p
Формат: MKV
Видео: AVC | 1920 x 816 | 59.940 fps | 15.0 Мбит/сек
Аудио #1: AC-3 | 5.1 | 48 kHz | 384 Кбит/сек | 16 bit | Дубляж (iTunes) | RUS |
Аудио #2: DTS | 5.1 | 48 kHz | 1509 Кбит/сек | 24 bit | Оригинал | ENG |
Навигация по главам: Есть

MediaInfo:

General
Unique ID : 133452520425818283681300741184440725926 (0x6466054112FDCE3A0A06E95C89CF71A6)
Complete name : D:\2019 Клуб анонимных киллеров BDRip 1080p 60 fps.mkv
Format : Matroska
Format version : Version 4 / Version 2
File size : 11.3 GiB
Duration : 1h 35mn
Overall bit rate : 16.8 Mbps
Movie name : Клуб анонимных киллеров / Killers Anonymous
Encoded date : UTC 2019-09-02 20:42:23
Writing application : mkvmerge v22.0.0 ('At The End Of The World') 64-bit
Writing library : libebml v1.3.5 + libmatroska v1.4.8
DURATION : 01:28:26.867000000
NUMBER_OF_FRAMES : 1353
NUMBER_OF_BYTES : 45330
_STATISTICS_WRITING_APP : mkvmerge v22.0.0 ('At The End Of The World') 64-bit
_STATISTICS_WRITING_DATE_UTC : 2019-09-02 20:42:23
_STATISTICS_TAGS : BPS DURATION NUMBER_OF_FRAMES NUMBER_OF_BYTES
Attachment : Yes
Video #1
ID : 1
Format : AVC
Format/Info : Advanced Video Codec
Format profile : High@L4.1
Format settings, CABAC : Yes
Format settings, ReFrames : 5 frames
Codec ID : V_MPEG4/ISO/AVC
Duration : 1h 35mn
Bit rate : 15.0 Mbps
Width : 1 920 pixels
Height : 816 pixels
Display aspect ratio : 2.35:1
Frame rate : 59.940 fps
Color space : YUV
Chroma subsampling : 4:2:0
Bit depth : 8 bits
Scan type : Progressive
Bits/(Pixel*Frame) : 0.160
Stream size : 9.79 GiB (87%)
Writing library : x264 core 146 r2538 121396c
Encoding settings : cabac=1 / ref=5 / deblock=1:-3:-3 / analyse=0x3:0x113 / me=umh / subme=9 / psy=1 / psy_rd=1.00:0.25 / mixed_ref=1 / me_range=32 / chroma_me=1 / trellis=2 / 8x8dct=1 / cqm=0 / deadzone=6,6 / fast_pskip=1 / chroma_qp_offset=-4 / threads=12 / lookahead_threads=2 / sliced_threads=0 / nr=0 / decimate=0 / interlaced=0 / bluray_compat=0 / constrained_intra=0 / bframes=3 / b_pyramid=2 / b_adapt=2 / b_bias=0 / direct=3 / weightb=1 / open_gop=0 / weightp=2 / keyint=599 / keyint_min=60 / scenecut=40 / intra_refresh=0 / rc_lookahead=60 / rc=2pass / mbtree=1 / bitrate=15000 / ratetol=1.0 / qcomp=0.80 / qpmin=0 / qpmax=69 / qpstep=4 / cplxblur=20.0 / qblur=0.5 / vbv_maxrate=50000 / vbv_bufsize=62500 / nal_hrd=none / filler=0 / ip_ratio=1.10 / aq=1:0.50
Language : English
Default : Yes
Forced : No
DURATION : 01:35:54.716000000
NUMBER_OF_FRAMES : 344938
NUMBER_OF_BYTES : 10751426893
_STATISTICS_WRITING_APP : mkvmerge v22.0.0 ('At The End Of The World') 64-bit
_STATISTICS_WRITING_DATE_UTC : 2019-09-02 20:42:23
_STATISTICS_TAGS : BPS DURATION NUMBER_OF_FRAMES NUMBER_OF_BYTES
Audio #2
ID : 2
Format : AC-3
Format/Info : Audio Coding 3
Mode extension : CM (complete main)
Format settings, Endianness : Big
Codec ID : A_AC3
Duration : 1h 35mn
Bit rate mode : Constant
Bit rate : 384 Kbps
Channel(s) : 6 channels
Channel positions : Front: L C R, Side: L R, LFE
Sampling rate : 48.0 KHz
Bit depth : 16 bits
Compression mode : Lossy
Stream size : 263 MiB (2%)
Title : iTunes
Language : Russian
Default : Yes
Forced : No
Audio #3
ID : 3
Format : DTS
Format/Info : Digital Theater Systems
Codec ID : A_DTS
Duration : 1h 35mn
Bit rate mode : Constant
Bit rate : 1 510 Kbps
Channel(s) : 6 channels
Channel positions : Front: L C R, Side: L R, LFE
Sampling rate : 48.0 KHz
Bit depth : 24 bits
Compression mode : Lossy
Stream size : 1.01 GiB (9%)
Title : Оригинал
Language : English
Default : No
Forced : No
Text #4
ID : 4
Format : UTF-8
Codec ID : S_TEXT/UTF8
Codec ID/Info : UTF-8 Plain Text
Title : Full
Language : English
Default : No
Forced : No
Menu
00:00:00.000 : en:Chapter 01
00:08:53.324 : en:Chapter 02
00:15:20.377 : en:Chapter 03
00:22:24.593 : en:Chapter 04
00:29:08.788 : en:Chapter 05
00:34:53.549 : en:Chapter 06
00:42:32.925 : en:Chapter 07
00:45:51.373 : en:Chapter 08
00:49:31.218 : en:Chapter 09
00:54:00.612 : en:Chapter 10
00:58:51.653 : en:Chapter 11
01:08:00.785 : en:Chapter 12
01:12:52.785 : en:Chapter 13
01:18:44.136 : en:Chapter 14
01:24:21.097 : en:Chapter 15
01:28:20.545 : en:Chapter 16

[Цитировать]



Показать сообщения:    

Текущее время: 12-Ноя 10:15

Часовой пояс: UTC + 6


Вы не можете начинать темы
Вы не можете отвечать на сообщения
Вы не можете редактировать свои сообщения
Вы не можете удалять свои сообщения
Вы не можете голосовать в опросах
Вы не можете прикреплять файлы к сообщениям
Вы не можете скачивать файлы

!ВНИМАНИЕ!
Сайт не предоставляет электронные версии произведений, а занимается лишь коллекционированием и каталогизацией ссылок, присылаемых и публикуемых на форуме нашими читателями. Если вы являетесь правообладателем какого-либо представленного материала и не желаете, чтобы ссылка на него находилась в нашем каталоге, свяжитесь с нами, и мы незамедлительно удалим ее. Файлы для обмена на трекере предоставлены пользователями сайта, и администрация не несет ответственности за их содержание. Просьба не заливать файлы, защищенные авторскими правами, а также файлы нелегального содержания!