***Уважаемые пользователи и гости !!! Сайт переехал на новый домен Torrents-club.net. Просьба изменить ваши закладки! ***
 
[ Сегодня идет свободное скачивание без начисления Download ]


Статистика раздачи
Качаю: [ 1 ]
Скачал: [ 5 ]
 
   
 
 
 
 
Трое из ада / 3 from Hell / Three from Hell Информация о фильме
Название: Трое из ада
Оригинальное название: 3 from Hell / Three from Hell
Год выхода: 2019
Жанр: ужасы, триллер
Режиссер: Роб Зомби
Сценарий: Роб Зомби
В ролях: Шери Мун Зомби, Билл Моусли, Сид Хэйг, Ричард Брэйк, Эмилио Ривера, Дэнни Трехо, Сильвия Джеффрис, Ричард Рили, Алекс Элла, Ди Уоллес-Стоун, Джеффри Дэниэл Филлипс и др.
О фильме:
После того, как едва пережив яростную перестрелку с полицией, «Бэйби», Отис и «Капитан Сполдинг» оказываются за решеткой. Но чистое зло не может быть сдержано. Объединившись со сводным братом Отиса «Фокси», сумасшедший клан Файрфлай вернулся, чтобы развязать новую волну смерти и разврата. Огненный шторм убийства, безумия и хаоса будет развязан в этой ужасной поездке в ад и обратно.

Возраст: 18+ (зрителям, достигшим 18 лет. запрещено для детей)
Рейтинг MPAA: R (лицам до 17 лет обязательно присутствие взрослого)
Продолжительность: 01:55:47
Перевод 1: Авторский (одноголосый, закадровый) М.Яроцкий (ненормативная лексика)
Перевод 2: Любительский (двухголосый, закадровый) LakeFilms
Субтитры: English
Файл
Формат: Matroska
Качество: BDRip-AVC [исх.Three.from.Hell.2019.UNRATED.REMUX]
Видео: 1038x560 at 23.976 fps, x264, ~3500 kbps, 0.251 bpp
Аудио #1: AC3, 6 ch, ~448 kbps - | Русский | - AVO
Аудио #2: AC3, 2 ch, ~384 kbps - | Русский | - DVO
Аудио #2: AC3, 6 ch, ~384 kbps - | Английский | - ENG
Формат субтитров: softsub (SRT)

M/I

General
Format : Matroska
Format version : Version 4
File size : 3.82 GiB
Duration : 1 h 55 min
Overall bit rate : 4 717 kb/s
Movie name : Трое из ада.(2019).BDRip-AVC.[-=DoMiNo=-]
Encoded date : UTC 2019-11-08 08:08:47
Writing application : mkvmerge v39.0.0 ('In The Waiting Line') 64-bit
Writing library : libebml v1.3.9 + libmatroska v1.5.2
Attachments : poster / poster
Video
ID : 1
Format : AVC
Format/Info : Advanced Video Codec
Format profile : High@L4.1
Format settings : CABAC / 12 Ref Frames
Format settings, CABAC : Yes
Format settings, Reference : 12 frames
Codec ID : V_MPEG4/ISO/AVC
Duration : 1 h 55 min
Bit rate : 3 500 kb/s
Width : 1 038 pixels
Height : 560 pixels
Display aspect ratio : 1.85:1
Frame rate mode : Constant
Frame rate : 23.976 (24000/1001) FPS
Color space : YUV
Chroma subsampling : 4:2:0
Bit depth : 8 bits
Scan type : Progressive
Bits/(Pixel*Frame) : 0.251
Stream size : 2.83 GiB (74%)
Title : RIP_BY_-=DoMiNo=-
Writing library : x264 core 157 r2958 57baac4
Encoding settings : cabac=1 / ref=12 / deblock=1:-3:-3 / analyse=0x3:0x133 / me=umh / subme=11 / psy=1 / psy_rd=1.00:0.25 / mixed_ref=1 / me_range=48 / chroma_me=1 / trellis=2 / 8x8dct=1 / cqm=0 / deadzone=21,11 / fast_pskip=0 / chroma_qp_offset=-4 / threads=6 / lookahead_threads=1 / sliced_threads=0 / nr=0 / decimate=0 / interlaced=0 / bluray_compat=0 / constrained_intra=0 / bframes=14 / b_pyramid=2 / b_adapt=2 / b_bias=0 / direct=3 / weightb=1 / open_gop=0 / weightp=2 / keyint=240 / keyint_min=24 / scenecut=40 / intra_refresh=0 / rc_lookahead=60 / rc=2pass / mbtree=1 / bitrate=3500 / ratetol=1.0 / qcomp=0.80 / qpmin=0 / qpmax=69 / qpstep=4 / cplxblur=20.0 / qblur=0.5 / ip_ratio=1.40 / aq=3:0.70
Language : English
Default : Yes
Forced : No
Audio #1
ID : 2
Format : AC-3
Format/Info : Audio Coding 3
Commercial name : Dolby Digital
Codec ID : A_AC3
Duration : 1 h 55 min
Bit rate mode : Constant
Bit rate : 448 kb/s
Channel(s) : 6 channels
Channel layout : L R C LFE Ls Rs
Sampling rate : 48.0 kHz
Frame rate : 31.250 FPS (1536 SPF)
Compression mode : Lossy
Stream size : 371 MiB (9%)
Title : AVO_[Яроцкий]
Language : Russian
Service kind : Complete Main
Default : Yes
Forced : No
Audio #2
ID : 3
Format : AC-3
Format/Info : Audio Coding 3
Commercial name : Dolby Digital
Codec ID : A_AC3
Duration : 1 h 55 min
Bit rate mode : Constant
Bit rate : 384 kb/s
Channel(s) : 2 channels
Channel layout : L R
Sampling rate : 48.0 kHz
Frame rate : 31.250 FPS (1536 SPF)
Compression mode : Lossy
Stream size : 318 MiB (8%)
Title : DVO LakeFilms
Language : Russian
Service kind : Complete Main
Default : No
Forced : No
Audio #3
ID : 4
Format : AC-3
Format/Info : Audio Coding 3
Commercial name : Dolby Digital
Codec ID : A_AC3
Duration : 1 h 55 min
Bit rate mode : Constant
Bit rate : 384 kb/s
Channel(s) : 6 channels
Channel layout : L R C LFE Ls Rs
Sampling rate : 48.0 kHz
Frame rate : 31.250 FPS (1536 SPF)
Compression mode : Lossy
Stream size : 318 MiB (8%)
Title : ENG
Language : English
Service kind : Complete Main
Default : No
Forced : No
Text
ID : 5
Format : UTF-8
Codec ID : S_TEXT/UTF8
Codec ID/Info : UTF-8 Plain Text
Duration : 1 h 46 min
Bit rate : 53 b/s
Count of elements : 1369
Stream size : 41.7 KiB (0%)
Title : ENG
Language : English
Default : No
Forced : No
Menu
00:00:00.000 : :Chapter 01
00:06:18.920 : :Chapter 02
00:13:16.837 : :Chapter 03
00:21:29.538 : :Chapter 04
00:28:25.286 : :Chapter 05
00:33:30.049 : :Chapter 06
00:42:12.738 : :Chapter 07
00:48:23.150 : :Chapter 08
00:55:15.937 : :Chapter 09
01:05:21.167 : :Chapter 10
01:10:13.834 : :Chapter 11
01:21:01.231 : :Chapter 12
01:25:16.069 : :Chapter 13
01:31:16.262 : :Chapter 14
01:39:35.260 : :Chapter 15
01:46:39.434 : :Chapter 16

Скриншоты

[Цитировать]



Показать сообщения:    

Текущее время: 19-Ноя 16:30

Часовой пояс: UTC + 6


Вы не можете начинать темы
Вы не можете отвечать на сообщения
Вы не можете редактировать свои сообщения
Вы не можете удалять свои сообщения
Вы не можете голосовать в опросах
Вы не можете прикреплять файлы к сообщениям
Вы не можете скачивать файлы

!ВНИМАНИЕ!
Сайт не предоставляет электронные версии произведений, а занимается лишь коллекционированием и каталогизацией ссылок, присылаемых и публикуемых на форуме нашими читателями. Если вы являетесь правообладателем какого-либо представленного материала и не желаете, чтобы ссылка на него находилась в нашем каталоге, свяжитесь с нами, и мы незамедлительно удалим ее. Файлы для обмена на трекере предоставлены пользователями сайта, и администрация не несет ответственности за их содержание. Просьба не заливать файлы, защищенные авторскими правами, а также файлы нелегального содержания!