***Уважаемые пользователи и гости !!! Сайт переехал на новый домен Torrents-club.net. Просьба изменить ваши закладки! ***
 
[ Сегодня идет свободное скачивание без начисления Download ]


Статистика раздачи
Скачал: [ 3 ]
 
   
 
 
 
 
Молчание / The SilenceИнформация о фильме
Название: Молчание
Оригинальное название: The Silence
Год выхода: 2019
Жанр: ужасы
Режиссер: Джон Р. Леонетти
В ролях: Кирнан Шипка, Стэнли Туччи, Миранда Отто, Джон Корбетт, Сара Эбботт, Кейт Корбетт, Кайл Харрисон Брейткопф, Демпси Брайк, Билли Маклеллан, Ханна Гордон

О фильме: Спелеологи вскрыли древнюю пещеру в Молдавии, тем самым выпустив на свободу странных существ, больше всего похожих на летучих мышей. Твари слепы и ориентируются только на звуки, быстро перемещаются на кожистых крыльях и довольно шустро размножаются, поэтому вскоре распространяются по всей планете. И, конечно, они весьма кровожадны.
Страна: Германия
Студия: Constantin Film
Продолжительность: 01:30:49
Перевод: Дублированный | SDI Media
Качество: BDRip 1080p
Видео: MPEG-4 AVC, 1920x804, 10.3 Mbit/s, 23.976 fps
Аудио #01: 48 kHz, E-AC3, 5.1, 640 Kbps | Дублированный | RUS |
Аудио #02: 48 kHz, AC3, 5.1, 640 Kbps | Оригинал | ENG |
Субтитры: Русские (Forced, full), английские

Скриншоты:

MI

General
Unique ID : 79034646432132313515164880772473484513 (0x3B7584EBA7032B99607D6437555EF4E1)
Complete name : D:Video111The.Silence.2019.BDRip.1080p.seleZen.mkv
Format : Matroska
Format version : Version 4
File size : 7.36 GiB
Duration : 1 h 30 min
Overall bit rate : 11.6 Mb/s
Movie name : The Silence 2019 from селезень
Encoded date : UTC 2019-11-08 02:53:10
Writing application : mkvmerge v22.0.0 ('At The End Of The World') 64-bit
Writing library : libebml v1.3.5 + libmatroska v1.4.8
Video
ID : 1
Format : AVC
Format/Info : Advanced Video Codec
Format profile : High@L4.1
Format settings : CABAC / 5 Ref Frames
Format settings, CABAC : Yes
Format settings, Reference : 5 frames
Codec ID : V_MPEG4/ISO/AVC
Duration : 1 h 30 min
Bit rate : 10.3 Mb/s
Width : 1 920 pixels
Height : 804 pixels
Display aspect ratio : 2.40:1
Frame rate mode : Constant
Frame rate : 23.976 (24000/1001) FPS
Color space : YUV
Chroma subsampling : 4:2:0
Bit depth : 8 bits
Scan type : Progressive
Bits/(Pixel*Frame) : 0.279
Stream size : 6.55 GiB (89%)
Title : Encoded by seleZen
Writing library : x264 core 148 r2705kMod 3f5ed56
Encoding settings : cabac=1 / ref=5 / deblock=1:-2:-2 / analyse=0x3:0x113 / me=umh / subme=11 / psy=1 / fade_compensate=0.00 / psy_rd=1.00:0.00 / mixed_ref=1 / me_range=32 / chroma_me=1 / trellis=2 / 8x8dct=1 / cqm=0 / deadzone=21,11 / fast_pskip=0 / chroma_qp_offset=-2 / threads=24 / lookahead_threads=6 / sliced_threads=0 / nr=0 / decimate=0 / interlaced=0 / bluray_compat=0 / constrained_intra=0 / fgo=0 / bframes=10 / b_pyramid=2 / b_adapt=2 / b_bias=0 / direct=3 / weightb=1 / open_gop=0 / weightp=2 / keyint=240 / keyint_min=23 / scenecut=40 / intra_refresh=0 / rc_lookahead=50 / rc=2pass / mbtree=0 / bitrate=10327 / ratetol=1.0 / qcomp=0.60 / qpmin=0 / qpmax=51 / qpstep=4 / cplxblur=20.0 / qblur=0.5 / vbv_maxrate=50000 / vbv_bufsize=62500 / nal_hrd=none / filler=0 / ip_ratio=1.40 / pb_ratio=1.30 / aq=3:0.80
Language : English
Default : Yes
Forced : No
Audio #1
ID : 2
Format : E-AC-3
Format/Info : Enhanced AC-3
Commercial name : Dolby Digital Plus
Codec ID : A_EAC3
Duration : 1 h 30 min
Bit rate mode : Constant
Bit rate : 640 kb/s
Channel(s) : 6 channels
Channel layout : L R C LFE Ls Rs
Sampling rate : 48.0 kHz
Frame rate : 31.250 FPS (1536 SPF)
Compression mode : Lossy
Stream size : 416 MiB (6%)
Title : [SDI Media]
Language : Russian
Service kind : Complete Main
Default : Yes
Forced : Yes
Audio #2
ID : 3
Format : AC-3
Format/Info : Audio Coding 3
Commercial name : Dolby Digital
Codec ID : A_AC3
Duration : 1 h 30 min
Bit rate mode : Constant
Bit rate : 640 kb/s
Channel(s) : 6 channels
Channel layout : L R C LFE Ls Rs
Sampling rate : 48.0 kHz
Frame rate : 31.250 FPS (1536 SPF)
Bit depth : 16 bits
Compression mode : Lossy
Stream size : 416 MiB (6%)
Title : Original
Language : English
Service kind : Complete Main
Default : No
Forced : No
Text #1
ID : 4
Format : UTF-8
Codec ID : S_TEXT/UTF8
Codec ID/Info : UTF-8 Plain Text
Duration : 1 h 29 min
Bit rate : 5 b/s
Count of elements : 85
Stream size : 3.62 KiB (0%)
Title : Forced
Language : Russian
Default : Yes
Forced : Yes
Text #2
ID : 5
Format : UTF-8
Codec ID : S_TEXT/UTF8
Codec ID/Info : UTF-8 Plain Text
Duration : 1 h 29 min
Bit rate : 36 b/s
Count of elements : 608
Stream size : 23.9 KiB (0%)
Title : Full
Language : Russian
Default : No
Forced : No
Text #3
ID : 6
Format : UTF-8
Codec ID : S_TEXT/UTF8
Codec ID/Info : UTF-8 Plain Text
Duration : 1 h 24 min
Bit rate : 39 b/s
Count of elements : 956
Stream size : 24.6 KiB (0%)
Title : SDH
Language : English
Default : No
Forced : No
Menu
00:00:00.000 : de:00:00:00.000
00:07:22.776 : de:00:07:22.776
00:12:34.212 : de:00:12:34.212
00:19:55.778 : de:00:19:55.778
00:25:23.731 : de:00:25:23.731
00:31:16.666 : de:00:31:16.666
00:36:58.216 : de:00:36:58.216
00:44:31.294 : de:00:44:31.294
00:50:23.437 : de:00:50:23.437
00:58:07.943 : de:00:58:07.943
01:03:35.603 : de:01:03:35.603
01:07:56.656 : de:01:07:56.656
01:15:00.287 : de:01:15:00.287
01:20:15.561 : de:01:20:15.561
01:24:45.205 : de:01:24:45.205

[Цитировать]



Показать сообщения:    

Текущее время: 12-Ноя 09:24

Часовой пояс: UTC + 6


Вы не можете начинать темы
Вы не можете отвечать на сообщения
Вы не можете редактировать свои сообщения
Вы не можете удалять свои сообщения
Вы не можете голосовать в опросах
Вы не можете прикреплять файлы к сообщениям
Вы не можете скачивать файлы

!ВНИМАНИЕ!
Сайт не предоставляет электронные версии произведений, а занимается лишь коллекционированием и каталогизацией ссылок, присылаемых и публикуемых на форуме нашими читателями. Если вы являетесь правообладателем какого-либо представленного материала и не желаете, чтобы ссылка на него находилась в нашем каталоге, свяжитесь с нами, и мы незамедлительно удалим ее. Файлы для обмена на трекере предоставлены пользователями сайта, и администрация не несет ответственности за их содержание. Просьба не заливать файлы, защищенные авторскими правами, а также файлы нелегального содержания!