***Уважаемые пользователи и гости !!! Сайт переехал на новый домен Torrents-club.net. Просьба изменить ваши закладки! ***
 
[ Сегодня идет свободное скачивание без начисления Download ]


Статистика раздачи
Скачал: [ 2 ]
 
   
 
 
 
 
Молчание / The SilenceИнформация о фильме
Название: Молчание
Оригинальное название: The Silence
Год выхода: 2019
Жанр: Ужасы, фантастика, триллер, драма
Режиссер: Джон Р. Леонетти
В ролях: Стэнли Туччи, Кирнан Шипка, Миранда Отто, Джон Корбетт, Сара Эбботт, Кейт Корбетт, Кайл Харрисон, Брейткопф, Демпси Брайк, Билли Маклеллан
О фильме:
Спелеологи вскрыли древнюю пещеру в Пенсильвании и выпустили на свободу агрессивных кровожадных существ, больше всего похожих на летучих мышей. Твари слепы, ориентируются только на звук, быстро перемещаются на кожистых крыльях и довольно шустро размножаются, поэтому вскоре распространяются по Северной Америке, неся хаос, смерть и уничтожая цивилизацию.

Страна: Германия
Студия: Constantin Film, EMJAG Productions
Продолжительность: 01:30:49
Перевод: Дублированный (SDI Media)
Файл
Качество: BDRemux 1080p | D
Видео: AVC/H.264, 1920x1080, ~33,7 Мbps, 23,976 fps
Звук:
Аудио 1: AC3, 6 ch, 640 Kbps - Русский
Аудио 2: DTS-HD MA, 6 ch, 2046 Kbps - Английский
Субтитры: Русский (Форс., Полные), Английский (Full, SDH)

Mediainfo

Общее
Уникальный идентификатор : 13184196471982674948299774355893867969 (0x9EB2F129DB2186E9081C95BA96355C1)
Полное имя : The Silence.2019.Remux.W.mkv
Формат : Matroska
Версия формата : Version 4
Размер файла : 23,1 Гбайт
Продолжительность : 1 ч. 30 м.
Режим общего битрейта : Переменный
Общий поток : 36,4 Мбит/сек
Название фильма : The Silence.2019.Remux.W
Дата кодирования : UTC 2019-11-07 20:35:53
Программа кодирования : mkvmerge v23.0.0 ('The Bride Said No') 64-bit
Библиотека кодирования : libebml v1.3.6 + libmatroska v1.4.9
Видео
Идентификатор : 1
Формат : AVC
Формат/Информация : Advanced Video Codec
Профиль формата : High@L4.1
Настройки формата : CABAC / 4 Ref Frames
Параметр CABAC формата : Да
Параметр RefFrames формата : 4 кадра
Идентификатор кодека : V_MPEG4/ISO/AVC
Продолжительность : 1 ч. 30 м.
Вид битрейта : Переменный
Битрейт : 33,7 Мбит/сек
Максимальный битрейт : 39,0 Мбит/сек
Ширина : 1920 пикселей
Высота : 1080 пикселей
Соотношение сторон : 16:9
Режим частоты кадров : Постоянный
Частота кадров : 23,976 (24000/1001) кадра/сек
Цветовое пространство : YUV
Субдискретизация насыщенности : 4:2:0
Битовая глубина : 8 бит
Тип развёртки : Прогрессивная
Бит/(Пиксели*Кадры) : 0.678
Размер потока : 21,4 Гбайт (93%)
Язык : English
Default : Да
Forced : Нет
Аудио #1
Идентификатор : 2
Формат : AC-3
Формат/Информация : Audio Coding 3
Коммерческое название : Dolby Digital
Идентификатор кодека : A_AC3
Продолжительность : 1 ч. 30 м.
Вид битрейта : Постоянный
Битрейт : 640 Кбит/сек
Каналы : 6 каналов
ChannelLayout : L R C LFE Ls Rs
Частота : 48,0 КГц
Частота кадров : 31,250 кадров/сек (1536 SPF)
Метод сжатия : С потерями
Размер потока : 416 Мбайт (2%)
Заголовок : DUB (SDI Media)
Язык : Russian
ServiceKind : Complete Main
Default : Да
Forced : Нет
Аудио #2
Идентификатор : 3
Формат : DTS XBR
Формат/Информация : Digital Theater Systems
Коммерческое название : DTS-HD High Resolution Audio
Идентификатор кодека : A_DTS
Продолжительность : 1 ч. 30 м.
Вид битрейта : Постоянный
Битрейт : 2046 Кбит/сек
Каналы : 6 каналов
ChannelLayout : C L R Ls Rs LFE
Частота : 48,0 КГц
Частота кадров : 93,750 кадра/сек (512 SPF)
Битовая глубина : 24 бит
Метод сжатия : С потерями
Размер потока : 1,30 Гбайт (6%)
Язык : English
Default : Нет
Forced : Нет
Текст #1
Идентификатор : 4
Формат : UTF-8
Идентификатор кодека : S_TEXT/UTF8
Идентификатор кодека/Информация : UTF-8 Plain Text
Продолжительность : 1 ч. 23 м.
Битрейт : 5 бит/сек
ElementCount : 84
Размер потока : 3,55 Кбайт (0%)
Заголовок : Forced
Язык : Russian
Default : Да
Forced : Нет
Текст #2
Идентификатор : 5
Формат : UTF-8
Идентификатор кодека : S_TEXT/UTF8
Идентификатор кодека/Информация : UTF-8 Plain Text
Продолжительность : 1 ч. 24 м.
Битрейт : 39 бит/сек
ElementCount : 601
Размер потока : 24,5 Кбайт (0%)
Заголовок : Full
Язык : Russian
Default : Нет
Forced : Нет
Текст #3
Идентификатор : 6
Формат : UTF-8
Идентификатор кодека : S_TEXT/UTF8
Идентификатор кодека/Информация : UTF-8 Plain Text
Продолжительность : 46 м. 10 с.
Битрейт : 3 бит/сек
ElementCount : 61
Размер потока : 1,18 Кбайт (0%)
Заголовок : Forced
Язык : English
Default : Нет
Forced : Нет
Текст #4
Идентификатор : 7
Формат : UTF-8
Идентификатор кодека : S_TEXT/UTF8
Идентификатор кодека/Информация : UTF-8 Plain Text
Продолжительность : 1 ч. 23 м.
Битрейт : 26 бит/сек
ElementCount : 592
Размер потока : 15,9 Кбайт (0%)
Заголовок : Full
Язык : English
Default : Нет
Forced : Нет
Текст #5
Идентификатор : 8
Формат : UTF-8
Идентификатор кодека : S_TEXT/UTF8
Идентификатор кодека/Информация : UTF-8 Plain Text
Продолжительность : 1 ч. 24 м.
Битрейт : 41 бит/сек
ElementCount : 923
Размер потока : 25,5 Кбайт (0%)
Заголовок : SDH
Язык : English
Default : Нет
Forced : Нет
Меню
00:00:00.000 : en:Chapter 1
00:07:22.775 : en:Chapter 2
00:12:34.211 : en:Chapter 3
00:19:55.777 : en:Chapter 4
00:25:23.730 : en:Chapter 5
00:31:16.666 : en:Chapter 6
00:36:58.216 : en:Chapter 7
00:44:31.293 : en:Chapter 8
00:50:23.437 : en:Chapter 9
00:58:07.942 : en:Chapter 10
01:03:35.603 : en:Chapter 11
01:07:56.655 : en:Chapter 12
01:15:00.287 : en:Chapter 13
01:20:15.560 : en:Chapter 14
01:24:45.205 : en:Chapter 15

Скриншоты

[Цитировать]



Показать сообщения:    

Текущее время: 12-Ноя 09:24

Часовой пояс: UTC + 6


Вы не можете начинать темы
Вы не можете отвечать на сообщения
Вы не можете редактировать свои сообщения
Вы не можете удалять свои сообщения
Вы не можете голосовать в опросах
Вы не можете прикреплять файлы к сообщениям
Вы не можете скачивать файлы

!ВНИМАНИЕ!
Сайт не предоставляет электронные версии произведений, а занимается лишь коллекционированием и каталогизацией ссылок, присылаемых и публикуемых на форуме нашими читателями. Если вы являетесь правообладателем какого-либо представленного материала и не желаете, чтобы ссылка на него находилась в нашем каталоге, свяжитесь с нами, и мы незамедлительно удалим ее. Файлы для обмена на трекере предоставлены пользователями сайта, и администрация не несет ответственности за их содержание. Просьба не заливать файлы, защищенные авторскими правами, а также файлы нелегального содержания!