***Уважаемые пользователи и гости !!! Сайт переехал на новый домен Torrents-club.net. Просьба изменить ваши закладки! ***
 
[ Сегодня идет свободное скачивание без начисления Download ]


Статистика раздачи
Скачал: [ 4 ]
 
   
 
 
 
 
Удача Логана / Logan Lucky Информация о фильме
Название: Удача Логана
Оригинальное название: Logan Lucky
Год выпуска: 2017
Жанр: Комедия, криминал
Выпущено: США, Free Association, Trans-Radial Pictures
Режиссер: Стивен Содерберг
В ролях: Дэниэл Крэйг, Ченнинг Татум, Адам Драйвер, Сет МакФарлейн, Себастьян Стэн, Кэти Холмс, Хилари Суэнк, Райли Кио, Фаррах Маккензи, Джим О`Хейр
О фильме: Будучи полнейшими неудачниками и по совместительству родными братьями, Джимми и Клайд не теряли надежд быстро разбогатеть. Они выросли в нищете, а потому идеей роскошной жизни были просто одержимы. Обучаться, карабкаться по карьерной лестнице и между тем ловко обходить своих конкурентов было явно не для них. Ребята считали, что куда проще и логичнее было вступить в мир преступности, где так и витает запах больших денег. Но и это главным героям оказалось не по зубам. Их долги возрастали с неимоверной скоростью, а вот отдавать их было нечем. Необходимо было рискнуть и при этом не остаться "с носом", но как же это сделать? Джимми и Клайд принимают решение пойти на ограбление. Вот только будучи отнюдь не профессионалами в данном деле, им приходиться идти на хитрость. Есть некий человек, сотню раз совершающий кражи и по ныне остающийся на свободе, вот именно он то им и нужен. Но как все таки обезопасить себя? Что помешает наемному грабителю не обмануть ребят и не скрыться с полученными деньгами? Похоже, братьям придется включить все свою смекалку, ибо не видать им гарантированного обеспеченного будущего, о котором они мечтали долгие годы.

Качество: BDRip (1080p)
Видео: MPEG-4 AVC, 8852 Кбит/с, 1920x804, 24 Кадр/c
Аудио: Русский (AC3, 6 ch, 640 Кбит/с), (DTS, 6 ch, 1509 Кбит/с), украинский (AC3, 6 ch, 448 Кбит/с),
Размер: 9.48 ГБ
Продолжительость: 01:58:31
Перевод: Дублированный
Субтитры: Русские
Озвучивание - (Лицензия)
Сохранены оригинальные чаптеры как на Blu-Ray.
За исходник, большое спасибо BLUEBIRD

x264

x264 [info]: frame I:1123 Avg QP:12.89 size:225192
x264 [info]: frame P:43800 Avg QP:15.88 size: 84197
x264 [info]: frame B:125733 Avg QP:16.16 size: 31229
x264 [info]: consecutive B-frames: 3.2% 3.7% 10.6% 47.3% 13.8% 12.7% 3.6% 2.0% 1.0% 0.7% 1.5%
x264 [info]: mb I I16..4: 12.7% 71.4% 15.9%
x264 [info]: mb P I16..4: 1.4% 17.9% 1.4% P16..4: 28.1% 31.7% 11.9% 1.9% 0.2% skip: 5.6%
x264 [info]: mb B I16..4: 0.3% 2.2% 0.2% B16..8: 28.1% 21.3% 4.5% direct: 8.6% skip:34.8% L0:43.8% L1:40.1% BI:16.1%
x264 [info]: 8x8 transform intra:84.3% inter:48.5%
x264 [info]: direct mvs spatial:99.4% temporal:0.6%
x264 [info]: coded y,uvDC,uvAC intra: 87.5% 91.1% 78.8% inter: 26.3% 40.7% 25.2%
x264 [info]: i16 v,h,dc,p: 18% 9% 6% 66%
x264 [info]: i8 v,h,dc,ddl,ddr,vr,hd,vl,hu: 12% 11% 15% 8% 10% 10% 10% 11% 12%
x264 [info]: i4 v,h,dc,ddl,ddr,vr,hd,vl,hu: 29% 12% 10% 6% 11% 9% 9% 7% 8%
x264 [info]: i8c dc,h,v,p: 48% 21% 15% 15%
x264 [info]: Weighted P-Frames: Y:1.8% UV:1.1%
x264 [info]: ref P L0: 48.9% 8.5% 23.4% 8.8% 9.3% 1.0% 0.0%
x264 [info]: ref B L0: 68.2% 21.8% 7.4% 2.5%
x264 [info]: ref B L1: 91.2% 8.8%
x264 [info]: kb/s:8851.20

Инфо-файл

Общее
Уникальный идентификатор : 242981003973413939244113737166857500063 (0xB6CC706BEF8631939C67A268297CF59F)
Полное имя : D:ЗагрузкиLogan.Lucky.2017.x264.BDRip.(1080p).OlLanDGroup.mkv
Формат : Matroska
Версия формата : Version 4 / Version 2
Размер файла : 9,48 Гбайт
Продолжительность : 1 ч. 58 м.
Общий поток : 11,5 Мбит/сек
Название фильма : Удача Логана.2017.Rip by: ollan
Дата кодирования : UTC 2019-11-09 16:17:28
Программа кодирования : mkvmerge v6.5.0 ('Isn't she lovely') built on Oct 20 2013 12:50:05
Библиотека кодирования : libebml v1.3.0 + libmatroska v1.4.1
Обложка : Yes
Attachments : Cover - Logan.Lucky.png
Видео
Идентификатор : 1
Формат : AVC
Формат/Информация : Advanced Video Codec
Профиль формата : High@L4.1
Настройки формата : CABAC / 5 Ref Frames
Параметр CABAC формата : Да
Параметр ReFrames формата : 5 кадров
Идентификатор кодека : V_MPEG4/ISO/AVC
Продолжительность : 1 ч. 58 м.
Битрейт : 8852 Кбит/сек
Ширина : 1920 пикселей
Высота : 804 пикселя
Соотношение сторон : 2,40:1
Режим частоты кадров : Постоянный
Частота кадров : 24,000 кадра/сек
Цветовое пространство : YUV
Субдискретизация насыщенности : 4:2:0
Битовая глубина : 8 бит
Тип развёртки : Прогрессивная
Бит/(Пиксели*Кадры) : 0.239
Размер потока : 7,14 Гбайт (75%)
Библиотека кодирования : x264 core 146 r2538 121396c
Настройки программы : cabac=1 / ref=5 / deblock=1:-3:-3 / analyse=0x3:0x133 / me=umh / subme=11 / psy=1 / psy_rd=0.95:0.05 / mixed_ref=1 / me_range=64 / chroma_me=1 / trellis=2 / 8x8dct=1 / cqm=0 / deadzone=21,11 / fast_pskip=0 / chroma_qp_offset=-3 / threads=12 / lookahead_threads=3 / sliced_threads=0 / nr=0 / decimate=0 / interlaced=0 / bluray_compat=0 / constrained_intra=0 / bframes=10 / b_pyramid=2 / b_adapt=2 / b_bias=0 / direct=3 / weightb=1 / open_gop=0 / weightp=2 / keyint=240 / keyint_min=23 / scenecut=40 / intra_refresh=0 / rc_lookahead=40 / rc=2pass / mbtree=0 / bitrate=8852 / ratetol=1.0 / qcomp=0.60 / qpmin=0 / qpmax=69 / qpstep=4 / cplxblur=20.0 / qblur=0.5 / vbv_maxrate=50000 / vbv_bufsize=62500 / nal_hrd=none / filler=0 / ip_ratio=1.40 / pb_ratio=1.30 / aq=1:1.00
Язык : English
Default : Да
Forced : Нет
Аудио #1
Идентификатор : 2
Формат : AC-3
Формат/Информация : Audio Coding 3
Идентификатор кодека : A_AC3
Продолжительность : 1 ч. 58 м.
Вид битрейта : Постоянный
Битрейт : 640 Кбит/сек
Каналы : 6 каналов
Расположение каналов : Front: L C R, Side: L R, LFE
Частота : 48,0 КГц
Частота кадров : 31,250 кадров/сек (1536 SPF)
Битовая глубина : 16 бит
Метод сжатия : С потерями
Размер потока : 543 Мбайт (6%)
Заголовок : Лицензия
Язык : Russian
Service kind : Complete Main
Default : Да
Forced : Нет
Аудио #2
Идентификатор : 3
Формат : DTS
Формат/Информация : Digital Theater Systems
Идентификатор кодека : A_DTS
Продолжительность : 1 ч. 58 м.
Вид битрейта : Постоянный
Битрейт : 1509 Кбит/сек
Каналы : 6 каналов
Расположение каналов : Front: L C R, Side: L R, LFE
Частота : 48,0 КГц
Частота кадров : 93,750 кадра/сек (512 SPF)
Битовая глубина : 24 бит
Метод сжатия : С потерями
Размер потока : 1,25 Гбайт (13%)
Заголовок : Лицензия
Язык : Russian
Default : Нет
Forced : Нет
Аудио #3
Идентификатор : 4
Формат : AC-3
Формат/Информация : Audio Coding 3
Идентификатор кодека : A_AC3
Продолжительность : 1 ч. 58 м.
Вид битрейта : Постоянный
Битрейт : 448 Кбит/сек
Каналы : 6 каналов
Расположение каналов : Front: L C R, Side: L R, LFE
Частота : 48,0 КГц
Частота кадров : 31,250 кадров/сек (1536 SPF)
Битовая глубина : 16 бит
Метод сжатия : С потерями
Размер потока : 380 Мбайт (4%)
Заголовок : Лицензия
Язык : Ukrainian
Service kind : Complete Main
Default : Нет
Forced : Нет
Текст #1
Идентификатор : 5
Формат : UTF-8
Идентификатор кодека : S_TEXT/UTF8
Идентификатор кодека/Информация : UTF-8 Plain Text
Заголовок : Forced
Язык : Russian
Default : Да
Forced : Нет
Текст #2
Идентификатор : 6
Формат : UTF-8
Идентификатор кодека : S_TEXT/UTF8
Идентификатор кодека/Информация : UTF-8 Plain Text
Заголовок : Full
Язык : Russian
Default : Нет
Forced : Нет
Меню
00:00:00.000 : en:Chapter 01
00:00:34.833 : en:Chapter 02
00:10:16.458 : en:Chapter 03
00:27:59.416 : en:Chapter 04
00:43:06.708 : en:Chapter 05
00:58:26.083 : en:Chapter 06
01:11:49.458 : en:Chapter 07
01:26:27.291 : en:Chapter 08
01:42:17.666 : en:Chapter 09

Скриншоты



[Цитировать]



Показать сообщения:    

Текущее время: 13-Дек 10:44

Часовой пояс: UTC + 6


Вы не можете начинать темы
Вы не можете отвечать на сообщения
Вы не можете редактировать свои сообщения
Вы не можете удалять свои сообщения
Вы не можете голосовать в опросах
Вы не можете прикреплять файлы к сообщениям
Вы не можете скачивать файлы

!ВНИМАНИЕ!
Сайт не предоставляет электронные версии произведений, а занимается лишь коллекционированием и каталогизацией ссылок, присылаемых и публикуемых на форуме нашими читателями. Если вы являетесь правообладателем какого-либо представленного материала и не желаете, чтобы ссылка на него находилась в нашем каталоге, свяжитесь с нами, и мы незамедлительно удалим ее. Файлы для обмена на трекере предоставлены пользователями сайта, и администрация не несет ответственности за их содержание. Просьба не заливать файлы, защищенные авторскими правами, а также файлы нелегального содержания!