***Уважаемые пользователи и гости !!! Сайт переехал на новый домен Torrents-club.net. Просьба изменить ваши закладки! ***
 
[ Сегодня идет свободное скачивание без начисления Download ]


Статистика раздачи
Скачал: [ 6 ]
 
   
 
 
 
 
Рэмбо: Последняя кровь / Rambo: Last Blood (2019)- Производство: США / Balboa Productions, Campbell Grobman Films, Dadi Film Group
Жанр: Боевик, триллер, приключения, вестерн
Режиссер: Адриан Грюнберг
Актеры: Сильвестр Сталлоне, Пас Вега, Ивет Монреаль, Луис Мэндилор, Оскар Хаенада, Шила Шах, Серхио Перис-Менчета, Джессика Мэдсен, Хоакин Косио, Адриана Барраса
Описание:
Он хранил секреты всю жизнь, но пришло время взглянуть в глаза прошлому. В последний раз собраться и стать безжалостной машиной для убийства. Рэмбо снова встанет на смертельно опасный путь — путь мести, который ему придется пройти до конца.

Возраст: 18+ (зрителям, достигшим 18 лет. запрещено для детей)
Рейтинг MPAA: R (лицам до 17 лет обязательно присутствие взрослого)
Дата мировой премьеры: 18 сентября 2019
Дата премьеры в России: 19 сентября 2019

Продолжительность: 01:41:06
Качество видео: BDRip (720p)
Перевод: Дублированный (iTunes)
Субтитры: Отсутствуют
Видео: AVC/H.264, 1280x534, ~6200 Kbps
Аудио #1: AC3, 6 ch, 384 Kbps - Русский
Аудио #2: AC3, 6 ch, 640 Kbps - Английский

MediaInfo:

Общее
Уникальный идентификатор : 253500360764661547126111553785029019228 (0xBEB664C1110E3DDAA31AF6E1BA19465C)
Полное имя : D:\NNM\Рэмбо\Rambo Last Blood.2019.BDRip.720p.mkv
Формат : Matroska
Версия формата : Version 4
Размер файла : 5,07 Гбайт
Продолжительность : 1 ч. 41 м.
Общий поток : 7178 Кбит/сек
Название фильма : EVO
Дата кодирования : UTC 2019-12-02 19:16:20
Программа кодирования : mkvmerge v6.5.0 ('Isn't she lovely') built on Oct 20 2013 12:50:05
Библиотека кодирования : libebml v1.3.0 + libmatroska v1.4.1
Видео
Идентификатор : 1
Формат : AVC
Формат/Информация : Advanced Video Codec
Профиль формата : High@L4.1
Настройки формата : CABAC / 4 Ref Frames
Параметр CABAC формата : Да
Параметр RefFrames формата : 4 кадра
Идентификатор кодека : V_MPEG4/ISO/AVC
Продолжительность : 1 ч. 41 м.
Битрейт : 6200 Кбит/сек
Ширина : 1280 пикселей
Высота : 534 пикселя
Соотношение сторон : 2,40:1
Режим частоты кадров : Постоянный
Частота кадров : 24,000 кадра/сек
Цветовое пространство : YUV
Субдискретизация насыщенности : 4:2:0
Битовая глубина : 8 бит
Тип развёртки : Прогрессивная
Бит/(Пиксели*Кадры) : 0.378
Размер потока : 4,25 Гбайт (84%)
Библиотека кодирования : x264 core 142 r2479 dd79a61
Настройки программы : cabac=1 / ref=1 / deblock=1:0:0 / analyse=0x3:0x113 / me=hex / subme=2 / psy=1 / psy_rd=1.00:0.00 / mixed_ref=0 / me_range=16 / chroma_me=1 / trellis=0 / 8x8dct=1 / cqm=0 / deadzone=21,11 / fast_pskip=1 / chroma_qp_offset=0 / threads=12 / lookahead_threads=4 / sliced_threads=0 / nr=0 / decimate=1 / interlaced=0 / bluray_compat=0 / constrained_intra=0 / bframes=3 / b_pyramid=2 / b_adapt=1 / b_bias=0 / direct=1 / weightb=1 / open_gop=0 / weightp=1 / keyint=240 / keyint_min=24 / scenecut=40 / intra_refresh=0 / rc_lookahead=10 / rc=abr / mbtree=1 / bitrate=6200 / ratetol=1.0 / qcomp=0.60 / qpmin=0 / qpmax=69 / qpstep=4 / vbv_maxrate=62500 / vbv_bufsize=78125 / nal_hrd=none / filler=0 / ip_ratio=1.40 / aq=1:1.00
Default : Да
Forced : Нет
Аудио #1
Идентификатор : 2
Формат : AC-3
Формат/Информация : Audio Coding 3
Коммерческое название : Dolby Digital
Идентификатор кодека : A_AC3
Продолжительность : 1 ч. 41 м.
Вид битрейта : Постоянный
Битрейт : 384 Кбит/сек
Каналы : 6 каналов
ChannelLayout : L R C LFE Ls Rs
Частота : 48,0 КГц
Частота кадров : 31,250 кадров/сек (1536 SPF)
Битовая глубина : 16 бит
Метод сжатия : С потерями
Задержка видео : -83 мс.
Размер потока : 278 Мбайт (5%)
Язык : Russian
ServiceKind/String : Complete Main
Default : Да
Forced : Нет
Аудио #2
Идентификатор : 3
Формат : AC-3
Формат/Информация : Audio Coding 3
Коммерческое название : Dolby Digital
Идентификатор кодека : A_AC3
Продолжительность : 1 ч. 41 м.
Вид битрейта : Постоянный
Битрейт : 640 Кбит/сек
Каналы : 6 каналов
ChannelLayout : L R C LFE Ls Rs
Частота : 48,0 КГц
Частота кадров : 31,250 кадров/сек (1536 SPF)
Битовая глубина : 16 бит
Метод сжатия : С потерями
Задержка видео : -5 мс.
Размер потока : 463 Мбайт (9%)
Язык : English
ServiceKind/String : Complete Main
Default : Нет
Forced : Нет
Меню
00:00:00.000 : :Chapter 1
00:07:53.333 : :Chapter 2
00:14:10.416 : :Chapter 3
00:21:30.041 : :Chapter 4
00:30:17.416 : :Chapter 5
00:41:13.333 : :Chapter 6
00:51:15.708 : :Chapter 7
00:57:20.333 : :Chapter 8
01:08:21.708 : :Chapter 9
01:16:52.333 : :Chapter 10
01:25:36.041 : :Chapter 11
01:33:57.333 : :Chapter 12
Скриншоты:

[Цитировать]



Показать сообщения:    

Текущее время: 15-Дек 11:01

Часовой пояс: UTC + 6


Вы не можете начинать темы
Вы не можете отвечать на сообщения
Вы не можете редактировать свои сообщения
Вы не можете удалять свои сообщения
Вы не можете голосовать в опросах
Вы не можете прикреплять файлы к сообщениям
Вы не можете скачивать файлы

!ВНИМАНИЕ!
Сайт не предоставляет электронные версии произведений, а занимается лишь коллекционированием и каталогизацией ссылок, присылаемых и публикуемых на форуме нашими читателями. Если вы являетесь правообладателем какого-либо представленного материала и не желаете, чтобы ссылка на него находилась в нашем каталоге, свяжитесь с нами, и мы незамедлительно удалим ее. Файлы для обмена на трекере предоставлены пользователями сайта, и администрация не несет ответственности за их содержание. Просьба не заливать файлы, защищенные авторскими правами, а также файлы нелегального содержания!